《皇牌空战:突击地平线》限定版OST下载

发布时间:2011/10/20 11:54:58 来源:电玩巴士 作者:shinkanzaki

  【FLAC无损自抓】限定版特典 14首 非3CD的通贩版OST

  自带RR3

点击进入下载

  曲目列表:

  REM DATE 2011

  PERFORMER "Project ACES"

  TITLE "ACE COMBAT ASSAULT HORIZON Soundtrack-Edited Version-"

  FILE "image.flac" WAVE

  TRACK 01 AUDIO
  TITLE "'REBIRTH' From Sand Storm"
  INDEX 01 00:00:00

  TRACK 02 AUDIO
  TITLE "Inferno"
  INDEX 01 06:53:31

  TRACK 03 AUDIO
  TITLE "Town Of Fiction"
  INDEX 01 13:30:60

  TRACK 04 AUDIO
  TITLE "Spooky"
  INDEX 01 20:22:29

  TRACK 05 AUDIO
  TITLE "Blue ON Blue"
  INDEX 01 24:40:64

  TRACK 06 AUDIO
  TITLE "Mrs.Krista Yoslav"
  INDEX 01 28:20:17

  TRACK 07 AUDIO
  TITLE "Rush"
  INDEX 01 31:52:08

  TRACK 08 AUDIO
  TITLE "Beyond The Canal"
  INDEX 01 36:40:37

  TRACK 09 AUDIO
  TITLE "Pipeline"
  INDEX 01 43:03:73

  TRACK 10 AUDIO
  TITLE "Launch"
  INDEX 01 47:31:02

  TRACK 11 AUDIO
  TITLE "Dogfight"
  INDEX 01 54:09:05

  TRACK 12 AUDIO
  TITLE "Release"
  INDEX 01 56:04:70

  TRACK 13 AUDIO
  TITLE "Horizon"
  INDEX 01 61:35:50

  TRACK 14 AUDIO
  TITLE "Gotta Stay Fly"
  INDEX 01 64:16:11

提示:支持键盘“← →”键翻页 阅读全文

相关推荐

评论